开启左侧

滑铁卢战役 Waterloo.1970.1080p.BluRay.REMUX.AVC.DTS-HD.MA5.1-FGT 34.34GB

Hao8k资源组 发表于 2019-11-27 07:42:46 | 显示全部楼层 |阅读模式
基本信息
豆瓣评分: 8.9分—8.0分
电影分类: 动作 战争 剧情 历史 
国  家: 意大利 
年  份: 70年代
音质编码: DTS-HD Master Audio 
电影声道: 其他

马上注册 Hao8k.cn ,获得更好的体验,让你轻松玩转Hao8k

您需要 登录 才可以下载或查看,没有帐号?立即注册

x
本帖最后由 Hao8k资源组 于 2019-11-27 07:44 编辑

滑铁卢战役 Waterloo.1970.1080p.BluRay.REMUX.AVC.DTS-HD.MA5.1-FGT 34.34GB-1.png

译  名 滑铁卢战役 / Sergo Zakariadze
片  名 Waterloo
年  代 1970
产  地 意大利 / 苏联
类  别 剧情 / 动作 / 历史 / 战争
语  言 英语 / 俄语
上映日期 1970-10-26
IMDb评分  7.3/10 from 7631 users
豆瓣评分 8.6/10 from 1249 users
片  长 134 分钟(挪威)
导  演 谢尔盖·邦达尔丘克 Sergei Bondarchuk
主  演
奥逊·威尔斯 Orson Welles
罗德·斯泰格尔 Rod Steiger
克里斯托弗·普卢默 Christopher Plummer

简  介
  1815年6月18日早晨,惠灵顿公爵所指挥的部队,聚集在比利时一个名为滑铁卢的小镇营地里。连绵不断的降雨带来了痛苦、潮湿和寒冷给士兵。但是这些士兵将会感谢这场从前夜就开始下的大雨,因为这场夏日暴雨不仅挽救了很多人的生命,同时,也即将改写了整个欧洲的历史,就是在这儿──滑铁卢战场。
  
  滑铁卢这场战役,是以拿破仑为首的法国军队独力抵抗以奥地利、普鲁士、俄国、英国为首的联盟国。拿破仑是个自信而又轻视敌人的人。他从未和惠灵顿交锋过,他相信惠灵顿不会在滑铁卢进行顽强抵抗。他期望一次进攻就能将惠灵顿赶下山脊,逼他後退。因此他根本没有料到会有一场大规模的战斗。
  
  战事一开始,法国好不容易才击败英国的先锋,但是法军的实力已被削弱了大半。当联军越接近法军,法军的士气越下降,军队也发生了骚动。不久,法军被彻底击败,这场战役只是打了一整日便结束。
  
  滑铁卢战役很特殊,因爲它是极少数单凭一场战斗就蠃得决定性胜利的战役。在这之後,几乎没有单凭一场战斗就能决定整个战争结局的战役,但这场战役做到了。滑铁卢战役的胜利使惠灵顿公爵成爲英雄,受到人民的热烈欢迎。而拿破仑的命运则是无比凄凉,他被流放在大西洋圣赫伦岛。在那里,拿破仑度过了他的馀生,昔日那位骄傲的皇帝,亦慢慢的消失在这个废墟中。

影片参数
  1. Video
  2. ID                                       : 1
  3. Format                                   : AVC
  4. Format/Info                              : Advanced Video Codec
  5. Format profile                           : <a href="/cdn-cgi/l/email-protection" class="__cf_email__" data-cfemail="f1b9989699b1bdc5dfc0">[email protected]</a>
  6. Format settings                          : CABAC / 4 Ref Frames
  7. Format settings, CABAC                   : Yes
  8. Format settings, Reference frames        : 4 frames
  9. Codec ID                                 : V_MPEG4/ISO/AVC
  10. Duration                                 : 2 h 13 min
  11. Bit rate mode                            : Variable
  12. Bit rate                                 : 32.7 Mb/s
  13. Maximum bit rate                         : 35.0 Mb/s
  14. Width                                    : 1 920 pixels
  15. Height                                   : 1 080 pixels
  16. Display aspect ratio                     : 16:9
  17. Frame rate mode                          : Constant
  18. Frame rate                               : 23.976 (24000/1001) FPS
  19. Standard                                 : NTSC
  20. Color space                              : YUV
  21. Chroma subsampling                       : 4:2:0
  22. Bit depth                                : 8 bits
  23. Scan type                                : Progressive
  24. Bits/(Pixel*Frame)                       : 0.658
  25. Stream size                              : 30.6 GiB (89%)
  26. Title                                    : Waterloo.1970.1080p.BluRay.REMUX.AVC.DTS-HD.MA5.1-FGT
  27. Language                                 : English
  28. Default                                  : No
  29. Forced                                   : No
  30. Color range                              : Limited
  31. Color primaries                          : BT.709
  32. Transfer characteristics                 : BT.709
  33. Matrix coefficients                      : BT.709

  34. Audio #1
  35. ID                                       : 2
  36. Format                                   : DTS XLL
  37. Format/Info                              : Digital Theater Systems
  38. Commercial name                          : DTS-HD Master Audio
  39. Codec ID                                 : A_DTS
  40. Duration                                 : 2 h 13 min
  41. Bit rate mode                            : Variable
  42. Bit rate                                 : 1 964 kb/s
  43. Channel(s)                               : 6 channels
  44. Channel layout                           : C L R Ls Rs LFE
  45. Sampling rate                            : 48.0 kHz
  46. Frame rate                               : 93.750 FPS (512 SPF)
  47. Bit depth                                : 16 bits
  48. Compression mode                         : Lossless
  49. Stream size                              : 1.84 GiB (5%)
  50. Title                                    : Waterloo.1970.1080p.BluRay.REMUX.AVC.DTS-HD.MA5.1-FGT
  51. Language                                 : English
  52. Default                                  : Yes
  53. Forced                                   : No

  54. Audio #2
  55. ID                                       : 3
  56. Format                                   : DTS XLL
  57. Format/Info                              : Digital Theater Systems
  58. Commercial name                          : DTS-HD Master Audio
  59. Codec ID                                 : A_DTS
  60. Duration                                 : 2 h 13 min
  61. Bit rate mode                            : Variable
  62. Bit rate                                 : 1 074 kb/s
  63. Channel(s)                               : 2 channels
  64. Channel layout                           : L R
  65. Sampling rate                            : 48.0 kHz
  66. Frame rate                               : 93.750 FPS (512 SPF)
  67. Bit depth                                : 16 bits
  68. Compression mode                         : Lossless
  69. Stream size                              : 1.00 GiB (3%)
  70. Title                                    : Waterloo.1970.1080p.BluRay.REMUX.AVC.DTS-HD.MA5.1-FGT
  71. Language                                 : English
  72. Default                                  : No
  73. Forced                                   : No

  74. Audio #3
  75. ID                                       : 4
  76. Format                                   : DTS XLL
  77. Format/Info                              : Digital Theater Systems
  78. Commercial name                          : DTS-HD Master Audio
  79. Codec ID                                 : A_DTS
  80. Duration                                 : 2 h 13 min
  81. Bit rate mode                            : Variable
  82. Bit rate                                 : 929 kb/s
  83. Channel(s)                               : 2 channels
  84. Channel layout                           : L R
  85. Sampling rate                            : 48.0 kHz
  86. Frame rate                               : 93.750 FPS (512 SPF)
  87. Bit depth                                : 16 bits
  88. Compression mode                         : Lossless
  89. Stream size                              : 890 MiB (3%)
  90. Title                                    : Waterloo.1970.1080p.BluRay.REMUX.AVC.DTS-HD.MA5.1-FGT
  91. Language                                 : English
  92. Default                                  : No
  93. Forced                                   : No

复制代码

精彩剧照

滑铁卢战役 Waterloo.1970.1080p.BluRay.REMUX.AVC.DTS-HD.MA5.1-FGT 34.34GB-1.png 滑铁卢战役 Waterloo.1970.1080p.BluRay.REMUX.AVC.DTS-HD.MA5.1-FGT 34.34GB-2.png 滑铁卢战役 Waterloo.1970.1080p.BluRay.REMUX.AVC.DTS-HD.MA5.1-FGT 34.34GB-4.png

hao8k提示您,点击下方下载按钮立刻开始下载
滑铁卢战役 Waterloo.1970.1080p.BluRay.REMUX.AVC.DTS-HD.MA5.1-FGT 34.34GB

Waterloo.1970.1080p.BluRay.REMUX.AVC.DTS-HD.MA5.1-FGT.torrent ( 86.39 KB, 售价: 8 K币 )



遇到问题怎么办?
Hao8k小助手精心为您解答:

蓝光资源该怎么播放?Hao8k精选播放软件汇总
用什么下载Hao8k资源呢?精选下载软件合辑
去看看新手学院,Hao8k小助手带你玩转高清
回复

使用道具 举报

全部回复1 显示全部楼层
ezsjyman 发表于 2021-12-13 22:18:34 | 显示全部楼层
滑铁卢战役 Waterloo.1970.1080p.BluRay.REMUX.AVC.DTS-HD.MA5.1-FGT 34.34GB [[url=]修改[/url]]! v4 \* `' U# b; B0 p% e
回复

使用道具 举报

声明:您在社区发表的所有信息仅代表用户个人观点,与本网站立场无关,希望各位烧友理性发言,不发表违法国家法律禁止的话题。

您需要登录后才可以回帖 登录 | 立即注册

本版积分规则

开通会员 每日签到 返回顶部 返回列表