开启左侧

猎人:死亡符文 The.Huntress.Rune.of.the.Dead.2019.1080p.BluRay.REMUX.AVC.DTS-HD.MA.5.1-FGT 17.41GB

Hao8k资源组 发表于 2019-11-27 06:49:20 | 显示全部楼层 |阅读模式
基本信息
豆瓣评分: 10.0分—9.0分
电影分类: 动作 恐怖 惊悚 
国  家:  
年  份: 2019年
音质编码: DTS-HD Master Audio 
电影声道: 5.1声道

马上注册 Hao8k.cn ,获得更好的体验,让你轻松玩转Hao8k

您需要 登录 才可以下载或查看,没有帐号?立即注册

x
本帖最后由 Hao8k资源组 于 2019-11-27 06:51 编辑

猎人:死亡符文 The.Huntress.Rune.of.the.Dead.2019.1080p.BluRay.REMUX.AVC.DTS-HD.MA.5.1-FGT 17.41GB-1.png

译  名 猎人:死亡符文
片  名 The.Huntress.Rune.of.the.Dead
年  代 2019
产  地 瑞典
类  别 动作 / 惊悚 / 恐怖
语  言 英语
上映日期 2019-10-19(瑞典)
IMDb评分  3.7/10 from 34 users
豆瓣评分 0/10 from 0 users
片  长 105分钟
导  演 Rasmus Tirzitis
主  演
Moa Enqvist Stefansdotter
Yohanna Idha
Viva ?stervall Lyngbrant
Andreas Rylander
Peter M?rlin
Urban Bergsten
Andrea Larsdotter
Tommi Korkeam?ki

简  介
  811 AD, a family, isolated in their home, deep in the woods a few days travel from Birka. They are poor. The hunting and fishing has been bad for some time, and the father, Joar, takes the desperate measure of going on a Viking raid. Joar does not return for a long time, and the family starts to fear he never will. Runa, the oldest daughter, takes over her fathers chores in his absence. She misses him dearly and nourishes a tender hope that he, once again, will return to them. But in her heart, somehow she knows, that the suffering of the family has just begun. There is something in the air, something in the water, the wind and in the soil. Runa is becoming aware of something vile, something dangerous out in the forest. One day when she is out hunting, she finds a bleeding man, a warrior, almost unconscious. She brings him inside and the family tend to his wounds. As he heals, she realizes he is sent to protect the family from an approaching evil. And he brings news of her father.

影片参数
  1. Video
  2. ID                                       : 1
  3. Format                                   : AVC
  4. Format/Info                              : Advanced Video Codec
  5. Format profile                           : <a href="/cdn-cgi/l/email-protection" class="__cf_email__" data-cfemail="b0f8d9d7d8f0fc849e81">[email protected]</a>
  6. Format settings                          : CABAC / 4 Ref Frames
  7. Format settings, CABAC                   : Yes
  8. Format settings, Reference frames        : 4 frames
  9. Codec ID                                 : V_MPEG4/ISO/AVC
  10. Duration                                 : 1 h 49 min
  11. Bit rate mode                            : Variable
  12. Bit rate                                 : 18.7 Mb/s
  13. Maximum bit rate                         : 28.0 Mb/s
  14. Width                                    : 1 920 pixels
  15. Height                                   : 1 080 pixels
  16. Display aspect ratio                     : 16:9
  17. Frame rate mode                          : Constant
  18. Frame rate                               : 24.000 FPS
  19. Standard                                 : NTSC
  20. Color space                              : YUV
  21. Chroma subsampling                       : 4:2:0
  22. Bit depth                                : 8 bits
  23. Scan type                                : Progressive
  24. Bits/(Pixel*Frame)                       : 0.375
  25. Stream size                              : 14.3 GiB (82%)
  26. Title                                    : The.Huntress.Rune.of.the.Dead.2019.1080p.BluRay.REMUX.AVC.DTS-HD.MA.5.1-FGT
  27. Language                                 : English
  28. Default                                  : No
  29. Forced                                   : No
  30. Color range                              : Limited
  31. Color primaries                          : BT.709
  32. Transfer characteristics                 : BT.709
  33. Matrix coefficients                      : BT.709

  34. Audio
  35. ID                                       : 2
  36. Format                                   : DTS XLL
  37. Format/Info                              : Digital Theater Systems
  38. Commercial name                          : DTS-HD Master Audio
  39. Codec ID                                 : A_DTS
  40. Duration                                 : 1 h 49 min
  41. Bit rate mode                            : Variable
  42. Bit rate                                 : 4 061 kb/s
  43. Channel(s)                               : 6 channels
  44. Channel layout                           : C L R Ls Rs LFE
  45. Sampling rate                            : 48.0 kHz
  46. Frame rate                               : 93.750 FPS (512 SPF)
  47. Bit depth                                : 24 bits
  48. Compression mode                         : Lossless
  49. Stream size                              : 3.11 GiB (18%)
  50. Title                                    : The.Huntress.Rune.of.the.Dead.2019.1080p.BluRay.REMUX.AVC.DTS-HD.MA.5.1-FGT
  51. Language                                 : English
  52. Default                                  : Yes
  53. Forced                                   : No

复制代码

精彩剧照

猎人:死亡符文 The.Huntress.Rune.of.the.Dead.2019.1080p.BluRay.REMUX.AVC.DTS-HD.MA.5.1-FGT 17.41GB-1.png 猎人:死亡符文 The.Huntress.Rune.of.the.Dead.2019.1080p.BluRay.REMUX.AVC.DTS-HD.MA.5.1-FGT 17.41GB-3.png

hao8k提示您,点击下方下载按钮立刻开始下载
猎人:死亡符文 The.Huntress.Rune.of.the.Dead.2019.1080p.BluRay.REMUX.AVC.DTS-HD.MA.5.1-FGT 17.41GB

The.Huntress.Rune.of.the.Dead.2019.1080p.BluRay.REMUX.AVC.DTS-HD.MA.5.1-FGT.torrent ( 87.62 KB, 售价: 8 K币 )



遇到问题怎么办?
Hao8k小助手精心为您解答:

蓝光资源该怎么播放?Hao8k精选播放软件汇总
用什么下载Hao8k资源呢?精选下载软件合辑
去看看新手学院,Hao8k小助手带你玩转高清
回复

使用道具 举报

全部回复0 显示全部楼层

声明:您在社区发表的所有信息仅代表用户个人观点,与本网站立场无关,希望各位烧友理性发言,不发表违法国家法律禁止的话题。

您需要登录后才可以回帖 登录 | 立即注册

本版积分规则

开通会员 每日签到 返回顶部 返回列表