开启左侧

沦落人 Still.Human.2018.CHINESE.1080p.BluRay.REMUX.AVC.TrueHD.5.1-FGT 18.76GB

Hao8k资源组 发表于 2019-11-27 05:25:20 | 显示全部楼层 |阅读模式
基本信息
豆瓣评分: 8.9分—8.0分
电影分类: 剧情 
国  家: 中国香港 
年  份: 2018年
音质编码: Dolby-TrueHD 
电影声道: 5.1声道

马上注册 Hao8k.cn ,获得更好的体验,让你轻松玩转Hao8k

您需要 登录 才可以下载或查看,没有帐号?立即注册

x
沦落人 Still.Human.2018.CHINESE.1080p.BluRay.REMUX.AVC.TrueHD.5.1-FGT 18.76GB-1.png

译  名 沦落人 / Still Human
片  名 淪落人
年  代 2018
产  地 香港
类  别 剧情
语  言 粤语
上映日期 2018-11-08(台湾金马奖) / 2019-04-11(香港)
IMDb评分  7.4/10 from 360 users
豆瓣评分 8.2/10 from 2481 users
片  长 112分钟
导  演 陈小娟 Oliver Chan
主  演
黄秋生 Anthony Wong Chau-Sang
Crisel Consunji
叶童 Cecilia Yip
李灿森 Sam Lee
黄定谦 Himmy Wong

简  介
  这是关于两个沦落香港的最低下层的人的故事。中年男子汉昌荣(黄秋生饰)因意外受伤瘫痪后妻离子散,他认为人生再没有值得期望的东西,而自己亦不值得拥有任何东西。年轻菲佣Evelyn(Crisel Consunji饰)因为现实的原因,成为了一个寄人篱下的工人,放弃了成为摄影师的梦想。那一个夏天,这样的两个陌生人相遇相识,感情在他们的主仆关系中发芽,然而盛放的,却是灵魂与灵魂之间的尊重和爱。他们一起经历的春夏秋冬,令他们学习到底要怎样面对人生的四季。

获奖情况
  第38届香港电影金像奖(2019)
  最佳电影(提名)
  最佳导演(提名) 陈小娟
  最佳编剧(提名) 陈小娟
  最佳男主角 黄秋生
  最佳女主角(提名) 姬素·孔尚治
  最佳男配角(提名) 李灿森
  最佳新演员 姬素·孔尚治
  新晋导演 陈小娟

  第13届亚洲电影大奖(2019)
  最佳新导演 陈小娟

影片参数
  1. Video
  2. ID                                       : 1
  3. Format                                   : AVC
  4. Format/Info                              : Advanced Video Codec
  5. Format profile                           : <a href="/cdn-cgi/l/email-protection" class="__cf_email__" data-cfemail="044c6d636c4448302a35">[email protected]</a>
  6. Format settings                          : CABAC / 4 Ref Frames
  7. Format settings, CABAC                   : Yes
  8. Format settings, Reference frames        : 4 frames
  9. Codec ID                                 : V_MPEG4/ISO/AVC
  10. Duration                                 : 1 h 51 min
  11. Bit rate mode                            : Variable
  12. Bit rate                                 : 20.9 Mb/s
  13. Maximum bit rate                         : 21.5 Mb/s
  14. Width                                    : 1 920 pixels
  15. Height                                   : 1 080 pixels
  16. Display aspect ratio                     : 16:9
  17. Frame rate mode                          : Constant
  18. Frame rate                               : 24.000 FPS
  19. Color space                              : YUV
  20. Chroma subsampling                       : 4:2:0
  21. Bit depth                                : 8 bits
  22. Scan type                                : Progressive
  23. Bits/(Pixel*Frame)                       : 0.420
  24. Stream size                              : 16.3 GiB (87%)
  25. Title                                    : Still.Human.2018.CHINESE.1080p.BluRay.REMUX.AVC.TrueHD.5.1-FGT
  26. Language                                 : English
  27. Default                                  : No
  28. Forced                                   : No

  29. Audio #1
  30. ID                                       : 2
  31. Format                                   : MLP FBA
  32. Format/Info                              : Meridian Lossless Packing FBA
  33. Commercial name                          : Dolby TrueHD
  34. Codec ID                                 : A_TRUEHD
  35. Duration                                 : 1 h 51 min
  36. Bit rate mode                            : Variable
  37. Bit rate                                 : 2 616 kb/s
  38. Maximum bit rate                         : 3 324 kb/s
  39. Channel(s)                               : 6 channels
  40. Channel layout                           : L R C LFE Ls Rs
  41. Sampling rate                            : 96.0 kHz
  42. Frame rate                               : 1 200.000 FPS (80 SPF)
  43. Compression mode                         : Lossless
  44. Stream size                              : 2.04 GiB (11%)
  45. Title                                    : Still.Human.2018.CHINESE.1080p.BluRay.REMUX.AVC.TrueHD.5.1-FGT
  46. Language                                 : Chinese
  47. Default                                  : Yes
  48. Forced                                   : No

  49. Audio #2
  50. ID                                       : 3
  51. Format                                   : AC-3
  52. Format/Info                              : Audio Coding 3
  53. Commercial name                          : Dolby Digital
  54. Codec ID                                 : A_AC3
  55. Duration                                 : 1 h 51 min
  56. Bit rate mode                            : Constant
  57. Bit rate                                 : 384 kb/s
  58. Channel(s)                               : 2 channels
  59. Channel layout                           : L R
  60. Sampling rate                            : 48.0 kHz
  61. Frame rate                               : 31.250 FPS (1536 SPF)
  62. Bit depth                                : 16 bits
  63. Compression mode                         : Lossy
  64. Stream size                              : 307 MiB (2%)
  65. Title                                    : Still.Human.2018.CHINESE.1080p.BluRay.REMUX.AVC.TrueHD.5.1-FGT
  66. Language                                 : Chinese
  67. Service kind                             : Complete Main
  68. Default                                  : No
  69. Forced                                   : No

复制代码

精彩剧照

沦落人 Still.Human.2018.CHINESE.1080p.BluRay.REMUX.AVC.TrueHD.5.1-FGT 18.76GB-1.png 沦落人 Still.Human.2018.CHINESE.1080p.BluRay.REMUX.AVC.TrueHD.5.1-FGT 18.76GB-1.png 沦落人 Still.Human.2018.CHINESE.1080p.BluRay.REMUX.AVC.TrueHD.5.1-FGT 18.76GB-4.png

hao8k提示您,点击下方下载按钮立刻开始下载
沦落人 Still.Human.2018.CHINESE.1080p.BluRay.REMUX.AVC.TrueHD.5.1-FGT 18.76GB

Still.Human.2018.CHINESE.1080p.BluRay.REMUX.AVC.TrueHD.5.1-FGT.torrent ( 94.37 KB, 售价: 8 K币 )



遇到问题怎么办?
Hao8k小助手精心为您解答:

蓝光资源该怎么播放?Hao8k精选播放软件汇总
用什么下载Hao8k资源呢?精选下载软件合辑
去看看新手学院,Hao8k小助手带你玩转高清
回复

使用道具 举报

全部回复0 显示全部楼层

声明:您在社区发表的所有信息仅代表用户个人观点,与本网站立场无关,希望各位烧友理性发言,不发表违法国家法律禁止的话题。

您需要登录后才可以回帖 登录 | 立即注册

本版积分规则

开通会员 每日签到 返回顶部 返回列表