开启左侧

血腥风暴 The.Mean.Season.1985.1080p.BluRay.REMUX.AVC.LPCM.2.0-FGT 27.93GB

Hao8k资源组 发表于 2019-11-27 05:24:15 | 显示全部楼层 |阅读模式
基本信息
豆瓣评分: 10.0分—9.0分
电影分类: 犯罪 惊悚 
国  家: 美国 
年  份: 80年代
音质编码: 未知 
电影声道: 2.0声道

马上注册 Hao8k.cn ,获得更好的体验,让你轻松玩转Hao8k

您需要 登录 才可以下载或查看,没有帐号?立即注册

x
血腥风暴 The.Mean.Season.1985.1080p.BluRay.REMUX.AVC.LPCM.2.0-FGT 27.93GB-1.png

译  名 血腥风暴
片  名 The Mean Season
年  代 1985
产  地 美国
类  别 惊悚 / 犯罪
语  言 英语
上映日期 1985-02-15(美国)
IMDb评分  6.1/10 from 3352 users
豆瓣评分 0/10 from 0 users
片  长 103 分钟
导  演 Phillip Borsos
主  演
Kurt Russell
Mariel Hemingway

简  介
  Malcon是迈阿密日报的记者。当地发生一起谋杀案,由他负责报道。而凶手竟然主动打电话联系他,并告知凶手的后续杀人计划。同时,凶手一边不断杀人,一边不断打电话给Malcon,并告知其情况。此事引起警方高度重视的同时,也引起当地媒体的热播,Malcon变得家喻户晓。凶手此时却又迁怒于他,因为凶手的本意在于通过Malcon的报道,引起公众的重视,现在反而Malcon“喧宾夺主”。而另一方面,Malcon的女朋友Christine对此也极为不满,认为Malcon在帮助凶手……

影片参数
  1. Video
  2. ID                                       : 1
  3. Format                                   : AVC
  4. Format/Info                              : Advanced Video Codec
  5. Format profile                           : <a href="/cdn-cgi/l/email-protection" class="__cf_email__" data-cfemail="bff7d6d8d7fff38b918e">[email protected]</a>
  6. Format settings                          : CABAC / 3 Ref Frames
  7. Format settings, CABAC                   : Yes
  8. Format settings, Reference frames        : 3 frames
  9. Codec ID                                 : V_MPEG4/ISO/AVC
  10. Duration                                 : 1 h 43 min
  11. Bit rate mode                            : Variable
  12. Bit rate                                 : 37.0 Mb/s
  13. Width                                    : 1 920 pixels
  14. Height                                   : 1 080 pixels
  15. Display aspect ratio                     : 16:9
  16. Frame rate mode                          : Constant
  17. Frame rate                               : 23.976 (24000/1001) FPS
  18. Standard                                 : NTSC
  19. Color space                              : YUV
  20. Chroma subsampling                       : 4:2:0
  21. Bit depth                                : 8 bits
  22. Scan type                                : Progressive
  23. Bits/(Pixel*Frame)                       : 0.744
  24. Stream size                              : 26.8 GiB (96%)
  25. Title                                    : The.Mean.Season.1985.1080p.BluRay.REMUX.AVC.LPCM.2.0-FGT
  26. Writing library                          : x264pro - Adobe CS Exporter Plug-in
  27. Encoding settings                        : cabac=1 / ref=4 / deblock=1:-2:-2 / analyse=0x3:0x113 / me=umh / subme=9 / psy=1 / psy_rd=1.00:0.25 / mixed_ref=1 / me_range=16 / chroma_me=1 / trellis=1 / 8x8dct=1 / cqm=0 / deadzone=6,6 / fast_pskip=1 / chroma_qp_offset=-4 / threads=12 / lookahead_threads=2 / sliced_threads=0 / slices=4 / nr=0 / decimate=0 / interlaced=0 / bluray_compat=1 / constrained_intra=0 / bframes=3 / b_pyramid=1 / b_adapt=2 / b_bias=0 / direct=3 / weightb=1 / open_gop=0 / weightp=1 / keyint=24 / keyint_min=1 / scenecut=40 / intra_refresh=0 / rc_lookahead=24 / rc=crf / mbtree=1 / crf=1.0 / qcomp=0.80 / qpmin=0 / qpmax=69 / qpstep=4 / vbv_maxrate=37000 / vbv_bufsize=30000 / crf_max=0.0 / nal_hrd=vbr / ip_ratio=1.10 / aq=1:0.50
  28. Language                                 : English
  29. Default                                  : No
  30. Forced                                   : No
  31. Color range                              : Limited
  32. Color primaries                          : BT.709
  33. Transfer characteristics                 : BT.709
  34. Matrix coefficients                      : BT.709

  35. Audio
  36. ID                                       : 2
  37. Format                                   : PCM
  38. Format settings                          : Little / Signed
  39. Codec ID                                 : A_PCM/INT/LIT
  40. Duration                                 : 1 h 43 min
  41. Bit rate mode                            : Constant
  42. Bit rate                                 : 1 536 kb/s
  43. Channel(s)                               : 2 channels
  44. Sampling rate                            : 48.0 kHz
  45. Frame rate                               : 30.000 FPS (1600 SPF)
  46. Bit depth                                : 16 bits
  47. Stream size                              : 1.12 GiB (4%)
  48. Title                                    : The.Mean.Season.1985.1080p.BluRay.REMUX.AVC.LPCM.2.0-FGT
  49. Language                                 : English
  50. Default                                  : Yes
  51. Forced                                   : No

复制代码

精彩剧照

血腥风暴 The.Mean.Season.1985.1080p.BluRay.REMUX.AVC.LPCM.2.0-FGT 27.93GB-2.png 血腥风暴 The.Mean.Season.1985.1080p.BluRay.REMUX.AVC.LPCM.2.0-FGT 27.93GB-3.png 血腥风暴 The.Mean.Season.1985.1080p.BluRay.REMUX.AVC.LPCM.2.0-FGT 27.93GB-4.png

hao8k提示您,点击下方下载按钮立刻开始下载
血腥风暴 The.Mean.Season.1985.1080p.BluRay.REMUX.AVC.LPCM.2.0-FGT 27.93GB

The.Mean.Season.1985.1080p.BluRay.REMUX.AVC.LPCM.2.0-FGT.torrent ( 70.36 KB, 售价: 8 K币 )



遇到问题怎么办?
Hao8k小助手精心为您解答:

蓝光资源该怎么播放?Hao8k精选播放软件汇总
用什么下载Hao8k资源呢?精选下载软件合辑
去看看新手学院,Hao8k小助手带你玩转高清
回复

使用道具 举报

全部回复0 显示全部楼层

声明:您在社区发表的所有信息仅代表用户个人观点,与本网站立场无关,希望各位烧友理性发言,不发表违法国家法律禁止的话题。

您需要登录后才可以回帖 登录 | 立即注册

本版积分规则

开通会员 每日签到 返回顶部 返回列表