开启左侧

小城故事 Small.Town.Story.1953.1080p.BluRay.REMUX.AVC.LPCM.2.0-FGT 12.63GB

Hao8k资源组 发表于 2019-11-27 01:02:48 | 显示全部楼层 |阅读模式
基本信息
豆瓣评分: 10.0分—9.0分
电影分类: 剧情 
国  家: 英国 
年  份: 更早
音质编码: 未知 
电影声道: 2.0声道

马上注册 Hao8k.cn ,获得更好的体验,让你轻松玩转Hao8k

您需要 登录 才可以下载或查看,没有帐号?立即注册

x
小城故事 Small.Town.Story.1953.1080p.BluRay.REMUX.AVC.LPCM.2.0-FGT 12.63GB-1.jpg

译  名 小城故事
片  名 Small Town Story
年  代 1953
产  地 英国
类  别 剧情
语  言 英语
IMDb评分  6.7/10 from 38 users
豆瓣评分 0/10 from 0 users
导  演 蒙哥马利·塔利 Montgomery Tully
主  演
唐纳德·休斯敦 Donald Houston
苏珊·肖 Susan Shaw
艾伦·惠特利 Alan Wheatley
肯特·沃尔顿 Kent Walton
乔治梅利特 George Merritt

简  介
  暂无相关剧情介绍

影片参数
  1. Video
  2. ID                                       : 1
  3. Format                                   : AVC
  4. Format/Info                              : Advanced Video Codec
  5. Format profile                           : High@L4
  6. Format settings                          : CABAC / 3 Ref Frames
  7. Format settings, CABAC                   : Yes
  8. Format settings, Reference frames        : 3 frames
  9. Codec ID                                 : V_MPEG4/ISO/AVC
  10. Duration                                 : 1 h 8 min
  11. Bit rate mode                            : Variable
  12. Bit rate                                 : 24.8 Mb/s
  13. Maximum bit rate                         : 33.0 Mb/s
  14. Width                                    : 1 920 pixels
  15. Height                                   : 1 080 pixels
  16. Display aspect ratio                     : 16:9
  17. Frame rate mode                          : Constant
  18. Frame rate                               : 24.000 FPS
  19. Standard                                 : NTSC
  20. Color space                              : YUV
  21. Chroma subsampling                       : 4:2:0
  22. Bit depth                                : 8 bits
  23. Scan type                                : Progressive
  24. Bits/(Pixel*Frame)                       : 0.499
  25. Stream size                              : 11.9 GiB (94%)
  26. Title                                    : Small.Town.Story.1953.1080p.BluRay.REMUX.AVC.LPCM.2.0-FGT
  27. Language                                 : English
  28. Default                                  : No
  29. Forced                                   : No
  30. Color range                              : Limited
  31. Color primaries                          : BT.709
  32. Transfer characteristics                 : BT.709
  33. Matrix coefficients                      : BT.709

  34. Audio
  35. ID                                       : 2
  36. Format                                   : PCM
  37. Format settings                          : Little / Signed
  38. Codec ID                                 : A_PCM/INT/LIT
  39. Duration                                 : 1 h 8 min
  40. Bit rate mode                            : Constant
  41. Bit rate                                 : 1 536 kb/s
  42. Channel(s)                               : 2 channels
  43. Sampling rate                            : 48.0 kHz
  44. Frame rate                               : 30.000 FPS (1600 SPF)
  45. Bit depth                                : 16 bits
  46. Stream size                              : 751 MiB (6%)
  47. Title                                    : Small.Town.Story.1953.1080p.BluRay.REMUX.AVC.LPCM.2.0-FGT
  48. Language                                 : English
  49. Default                                  : Yes
  50. Forced                                   : No

复制代码

精彩剧照

小城故事 Small.Town.Story.1953.1080p.BluRay.REMUX.AVC.LPCM.2.0-FGT 12.63GB-2.png 小城故事 Small.Town.Story.1953.1080p.BluRay.REMUX.AVC.LPCM.2.0-FGT 12.63GB-3.png 小城故事 Small.Town.Story.1953.1080p.BluRay.REMUX.AVC.LPCM.2.0-FGT 12.63GB-4.png

hao8k提示您,点击下方下载按钮立刻开始下载
小城故事 Small.Town.Story.1953.1080p.BluRay.REMUX.AVC.LPCM.2.0-FGT 12.63GB

Small.Town.Story.1953.1080p.BluRay.REMUX.AVC.LPCM.2.0-FGT.torrent ( 63.68 KB, 售价: 8 K币 )



遇到问题怎么办?
Hao8k小助手精心为您解答:

蓝光资源该怎么播放?Hao8k精选播放软件汇总
用什么下载Hao8k资源呢?精选下载软件合辑
去看看新手学院,Hao8k小助手带你玩转高清
回复

使用道具 举报

全部回复0 显示全部楼层

声明:您在社区发表的所有信息仅代表用户个人观点,与本网站立场无关,希望各位烧友理性发言,不发表违法国家法律禁止的话题。

您需要登录后才可以回帖 登录 | 立即注册

本版积分规则

开通会员 每日签到 返回顶部 返回列表