开启左侧

锅盖头4:回归法制 Jarhead.Law.of.Return.2019.1080p.BluRay.REMUX.AVC.DTS-HD.MA.5.1-FGT 24.03GB

Hao8k资源组 发表于 2019-11-27 00:57:33 | 显示全部楼层 |阅读模式
基本信息
豆瓣评分: 10.0分—9.0分
电影分类: 动作 战争 剧情 
国  家: 美国 
年  份: 2019年
音质编码: DTS-HD Master Audio 
电影声道: 5.1声道

马上注册 Hao8k.cn ,获得更好的体验,让你轻松玩转Hao8k

您需要 登录 才可以下载或查看,没有帐号?立即注册

x
锅盖头4:回归法制 Jarhead.Law.of.Return.2019.1080p.BluRay.REMUX.AVC.DTS-HD.MA.5.1-FGT 24.03GB-1.png

译  名 锅盖头4:回归法制
片  名 Jarhead: Law of Return
年  代 2019
产  地 美国
类  别 剧情 / 动作 / 战争
语  言 英语
上映日期 2019-10-01(美国)
豆瓣评分 0/10 from 0 users
片  长 103分钟
导  演 唐·迈克尔·保罗 Don Michael Paul
主  演
戴文·萨瓦 Devon Sawa
Yael Eitan
阿摩司·塔玛姆 Amos Tamam
阿莫里·诺拉斯科 Amaury Nolasco
杰夫·皮埃尔 Jeff Pierre

简  介
  Major Ronan Jackson (Devon Sawa), an accomplished fighter pilot for the Israel Defense Forces and son of a U.S. Senator (Robert Patrick), is shot down while flying through Syrian airspace. After miraculously surviving the crash, Jackson is taken captive by a group of Hezbollah militiamen. A gripping and powerful story packed with hard-hitting action, Jarhead: Law of Return follows a squad of Marines, led by Sergeant Dave Flores (Amaury Nolasco), as they risk their own lives in the hopes of saving an ally they"ve never met.

影片参数
  1. Video
  2. ID                                       : 1
  3. Format                                   : AVC
  4. Format/Info                              : Advanced Video Codec
  5. Format profile                           : High@L4
  6. Format settings                          : CABAC / 4 Ref Frames
  7. Format settings, CABAC                   : Yes
  8. Format settings, Reference frames        : 4 frames
  9. Codec ID                                 : V_MPEG4/ISO/AVC
  10. Duration                                 : 1 h 42 min
  11. Bit rate mode                            : Variable
  12. Bit rate                                 : 31.2 Mb/s
  13. Maximum bit rate                         : 35.0 Mb/s
  14. Width                                    : 1 920 pixels
  15. Height                                   : 1 080 pixels
  16. Display aspect ratio                     : 16:9
  17. Frame rate mode                          : Constant
  18. Frame rate                               : 23.976 (24000/1001) FPS
  19. Color space                              : YUV
  20. Chroma subsampling                       : 4:2:0
  21. Bit depth                                : 8 bits
  22. Scan type                                : Progressive
  23. Bits/(Pixel*Frame)                       : 0.627
  24. Stream size                              : 22.4 GiB (93%)
  25. Title                                    : Jarhead.Law.of.Return.2019.1080p.BluRay.REMUX.AVC.DTS-HD.MA.5.1-FGT
  26. Language                                 : English
  27. Default                                  : No
  28. Forced                                   : No

  29. Audio
  30. ID                                       : 2
  31. Format                                   : DTS XLL
  32. Format/Info                              : Digital Theater Systems
  33. Commercial name                          : DTS-HD Master Audio
  34. Codec ID                                 : A_DTS
  35. Duration                                 : 1 h 42 min
  36. Bit rate mode                            : Variable
  37. Bit rate                                 : 2 260 kb/s
  38. Channel(s)                               : 6 channels
  39. Channel layout                           : C L R Ls Rs LFE
  40. Sampling rate                            : 48.0 kHz
  41. Frame rate                               : 93.750 FPS (512 SPF)
  42. Bit depth                                : 24 bits
  43. Compression mode                         : Lossless
  44. Stream size                              : 1.62 GiB (7%)
  45. Title                                    : Jarhead.Law.of.Return.2019.1080p.BluRay.REMUX.AVC.DTS-HD.MA.5.1-FGT
  46. Language                                 : English
  47. Default                                  : Yes
  48. Forced                                   : No

复制代码

精彩剧照

锅盖头4:回归法制 Jarhead.Law.of.Return.2019.1080p.BluRay.REMUX.AVC.DTS-HD.MA.5.1-FGT 24.03GB-2.png 锅盖头4:回归法制 Jarhead.Law.of.Return.2019.1080p.BluRay.REMUX.AVC.DTS-HD.MA.5.1-FGT 24.03GB-3.png 锅盖头4:回归法制 Jarhead.Law.of.Return.2019.1080p.BluRay.REMUX.AVC.DTS-HD.MA.5.1-FGT 24.03GB-4.png

hao8k提示您,点击下方下载按钮立刻开始下载
锅盖头4:回归法制 Jarhead.Law.of.Return.2019.1080p.BluRay.REMUX.AVC.DTS-HD.MA.5.1-FGT 24.03GB

Jarhead.Law.of.Return.2019.1080p.BluRay.REMUX.AVC.DTS-HD.MA.5.1-FGT.torrent ( 60.65 KB, 售价: 8 K币 )



遇到问题怎么办?
Hao8k小助手精心为您解答:

蓝光资源该怎么播放?Hao8k精选播放软件汇总
用什么下载Hao8k资源呢?精选下载软件合辑
去看看新手学院,Hao8k小助手带你玩转高清
回复

使用道具 举报

全部回复2 显示全部楼层
qilaixi 发表于 2022-11-29 16:18:05 | 显示全部楼层
收藏系列电影
! b+ l$ H. M' F. y% I
回复

使用道具 举报

qilaixi 发表于 2022-11-29 16:22:45 | 显示全部楼层
收藏系列电影
回复

使用道具 举报

声明:您在社区发表的所有信息仅代表用户个人观点,与本网站立场无关,希望各位烧友理性发言,不发表违法国家法律禁止的话题。

您需要登录后才可以回帖 登录 | 立即注册

本版积分规则

开通会员 每日签到 返回顶部 返回列表