开启左侧

在黑暗中讲述的恐怖故事/在黑暗中说的鬼故事 Scary.Stories.to.Tell.in.the.Dark.2019.1080p.BluRay.REMUX.AVC.DTS-HD.MA.TrueHD.5.1-FGT 31.15GB

Hao8k资源组 发表于 2019-11-26 23:45:30 | 显示全部楼层 |阅读模式
基本信息
豆瓣评分: 6.9分—6.0分
电影分类: 恐怖 
国  家: 美国 
年  份: 2019年
音质编码: Dolby-TrueHD DTS-HD Master Audio 
电影声道: 5.1声道

马上注册 Hao8k.cn ,获得更好的体验,让你轻松玩转Hao8k

您需要 登录 才可以下载或查看,没有帐号?立即注册

x
在黑暗中讲述的恐怖故事/在黑暗中说的鬼故事 Scary.Stories.to.Tell.in.the.Dark.2019.1080p.BluRay.REMUX.AVC.DTS-HD.MA.TrueHD.5.1-FGT 31.15GB-1.png

译  名 在黑暗中讲述的恐怖故事 / 在黑暗中说的鬼故事(台) / 讲鬼故(港) / 黑暗恐怖故事
片  名 Scary Stories to Tell in the Dark
年  代 2019
产  地 美国
类  别 恐怖
语  言 英语
上映日期 2019-08-09(美国)
IMDb评分  6.4/10 from 20523 users
豆瓣评分 6.1/10 from 2971 users
片  长 108分钟
导  演 安德烈·艾弗道夫 André ?vredal
主  演
佐伊·玛格丽特·科莱蒂 Zoe Margaret Colletti
迈克尔·加尔扎 Michael Garza
加布里埃尔·拉什 Gabriel Rush
吉尔·贝罗斯 Gil Bellows
哈维尔·博泰特 Javier Botet
迪恩·诺里斯 Dean Norris
洛莱妮·图拿特 Lorraine Toussaint
奥斯汀·艾布拉姆斯 Austin Abrams
马克·斯达格 Mark Steger
斯蒂芬妮·贝尔丁 Stephanie Belding
简·莫凡特 Jane Moffat

简  介
  安德烈·艾弗道夫([无名女尸])接替吉尔莫·德尔·托罗执导[在黑暗中讲述的恐怖故事],丹·哈格曼、凯文·哈格曼操刀剧本,CBS负责影片制作。而托罗将担任制片人。该片根据艾文·施瓦兹的同名小说改编,故事围绕一群年轻人展开,小镇频发死亡事件,他们必须找出背后的秘密。本片明年夏天开拍。

影片参数
  1. Video
  2. ID                                       : 1
  3. Format                                   : AVC
  4. Format/Info                              : Advanced Video Codec
  5. Format profile                           : High@L4
  6. Format settings                          : CABAC / 4 Ref Frames
  7. Format settings, CABAC                   : Yes
  8. Format settings, Reference frames        : 4 frames
  9. Codec ID                                 : V_MPEG4/ISO/AVC
  10. Duration                                 : 1 h 47 min
  11. Bit rate mode                            : Variable
  12. Bit rate                                 : 35.1 Mb/s
  13. Maximum bit rate                         : 37.0 Mb/s
  14. Width                                    : 1 920 pixels
  15. Height                                   : 1 080 pixels
  16. Display aspect ratio                     : 16:9
  17. Frame rate mode                          : Constant
  18. Frame rate                               : 23.976 (24000/1001) FPS
  19. Color space                              : YUV
  20. Chroma subsampling                       : 4:2:0
  21. Bit depth                                : 8 bits
  22. Scan type                                : Progressive
  23. Bits/(Pixel*Frame)                       : 0.707
  24. Stream size                              : 26.5 GiB (85%)
  25. Title                                    : Scary.Stories.to.Tell.in.the.Dark.2019.1080p.BluRay.REMUX.AVC.DTS-HD.MA.TrueHD.5.1-FGT
  26. Language                                 : English
  27. Default                                  : No
  28. Forced                                   : No

  29. Audio #1
  30. ID                                       : 2
  31. Format                                   : MLP FBA
  32. Format/Info                              : Meridian Lossless Packing FBA
  33. Commercial name                          : Dolby TrueHD
  34. Codec ID                                 : A_TRUEHD
  35. Duration                                 : 1 h 47 min
  36. Bit rate mode                            : Variable
  37. Bit rate                                 : 1 713 kb/s
  38. Maximum bit rate                         : 2 733 kb/s
  39. Channel(s)                               : 6 channels
  40. Channel layout                           : L R C LFE Ls Rs
  41. Sampling rate                            : 48.0 kHz
  42. Frame rate                               : 1 200.000 FPS (40 SPF)
  43. Compression mode                         : Lossless
  44. Stream size                              : 1.29 GiB (4%)
  45. Title                                    : Scary.Stories.to.Tell.in.the.Dark.2019.1080p.BluRay.REMUX.AVC.DTS-HD.MA.TrueHD.5.1-FGT
  46. Language                                 : English
  47. Default                                  : Yes
  48. Forced                                   : No

  49. Audio #2
  50. ID                                       : 3
  51. Format                                   : DTS XLL
  52. Format/Info                              : Digital Theater Systems
  53. Commercial name                          : DTS-HD Master Audio
  54. Codec ID                                 : A_DTS
  55. Duration                                 : 1 h 47 min
  56. Bit rate mode                            : Variable
  57. Bit rate                                 : 3 061 kb/s
  58. Channel(s)                               : 6 channels
  59. Channel layout                           : C L R Ls Rs LFE
  60. Sampling rate                            : 48.0 kHz
  61. Frame rate                               : 93.750 FPS (512 SPF)
  62. Bit depth                                : 24 bits
  63. Compression mode                         : Lossless
  64. Stream size                              : 2.31 GiB (7%)
  65. Title                                    : Scary.Stories.to.Tell.in.the.Dark.2019.1080p.BluRay.REMUX.AVC.DTS-HD.MA.TrueHD.5.1-FGT
  66. Language                                 : English
  67. Default                                  : No
  68. Forced                                   : No

  69. Audio #3
  70. ID                                       : 4
  71. Format                                   : AC-3
  72. Format/Info                              : Audio Coding 3
  73. Commercial name                          : Dolby Digital
  74. Codec ID                                 : A_AC3
  75. Duration                                 : 1 h 47 min
  76. Bit rate mode                            : Constant
  77. Bit rate                                 : 640 kb/s
  78. Channel(s)                               : 6 channels
  79. Channel layout                           : L R C LFE Ls Rs
  80. Sampling rate                            : 48.0 kHz
  81. Frame rate                               : 31.250 FPS (1536 SPF)
  82. Bit depth                                : 16 bits
  83. Compression mode                         : Lossy
  84. Stream size                              : 494 MiB (2%)
  85. Title                                    : Scary.Stories.to.Tell.in.the.Dark.2019.1080p.BluRay.REMUX.AVC.DTS-HD.MA.TrueHD.5.1-FGT
  86. Language                                 : English
  87. Service kind                             : Complete Main
  88. Default                                  : No
  89. Forced                                   : No

  90. Audio #4
  91. ID                                       : 5
  92. Format                                   : AC-3
  93. Format/Info                              : Audio Coding 3
  94. Commercial name                          : Dolby Digital
  95. Codec ID                                 : A_AC3
  96. Duration                                 : 1 h 47 min
  97. Bit rate mode                            : Constant
  98. Bit rate                                 : 448 kb/s
  99. Channel(s)                               : 6 channels
  100. Channel layout                           : L R C LFE Ls Rs
  101. Sampling rate                            : 48.0 kHz
  102. Frame rate                               : 31.250 FPS (1536 SPF)
  103. Bit depth                                : 16 bits
  104. Compression mode                         : Lossy
  105. Stream size                              : 346 MiB (1%)
  106. Title                                    : Scary.Stories.to.Tell.in.the.Dark.2019.1080p.BluRay.REMUX.AVC.DTS-HD.MA.TrueHD.5.1-FGT
  107. Language                                 : Spanish
  108. Service kind                             : Complete Main
  109. Default                                  : No
  110. Forced                                   : No

  111. Audio #5
  112. ID                                       : 6
  113. Format                                   : AC-3
  114. Format/Info                              : Audio Coding 3
  115. Commercial name                          : Dolby Digital
  116. Codec ID                                 : A_AC3
  117. Duration                                 : 1 h 47 min
  118. Bit rate mode                            : Constant
  119. Bit rate                                 : 192 kb/s
  120. Channel(s)                               : 2 channels
  121. Channel layout                           : L R
  122. Sampling rate                            : 48.0 kHz
  123. Frame rate                               : 31.250 FPS (1536 SPF)
  124. Bit depth                                : 16 bits
  125. Compression mode                         : Lossy
  126. Stream size                              : 148 MiB (0%)
  127. Title                                    : Scary.Stories.to.Tell.in.the.Dark.2019.1080p.BluRay.REMUX.AVC.DTS-HD.MA.TrueHD.5.1-FGT
  128. Language                                 : English
  129. Service kind                             : Complete Main
  130. Default                                  : No
  131. Forced                                   : No

复制代码

精彩剧照

在黑暗中讲述的恐怖故事/在黑暗中说的鬼故事 Scary.Stories.to.Tell.in.the.Dark.2019.1080p.BluRay.REMUX.AVC.DTS-HD.MA.TrueHD.5.1-FGT 31.15GB-2.png 在黑暗中讲述的恐怖故事/在黑暗中说的鬼故事 Scary.Stories.to.Tell.in.the.Dark.2019.1080p.BluRay.REMUX.AVC.DTS-HD.MA.TrueHD.5.1-FGT 31.15GB-3.png 在黑暗中讲述的恐怖故事/在黑暗中说的鬼故事 Scary.Stories.to.Tell.in.the.Dark.2019.1080p.BluRay.REMUX.AVC.DTS-HD.MA.TrueHD.5.1-FGT 31.15GB-4.png

hao8k提示您,点击下方下载按钮立刻开始下载
在黑暗中讲述的恐怖故事/在黑暗中说的鬼故事 Scary.Stories.to.Tell.in.the.Dark.2019.1080p.BluRay.REMUX.AVC.DTS-HD.MA.TrueHD.5.1-FGT 31.15GB

Scary.Stories.to.Tell.in.the.Dark.2019.1080p.BluRay.REMUX.AVC.DTS-HD.MA.TrueHD.5.torrent ( 78.48 KB, 售价: 8 K币 )



遇到问题怎么办?
Hao8k小助手精心为您解答:

蓝光资源该怎么播放?Hao8k精选播放软件汇总
用什么下载Hao8k资源呢?精选下载软件合辑
去看看新手学院,Hao8k小助手带你玩转高清
回复

使用道具 举报

全部回复0 显示全部楼层

声明:您在社区发表的所有信息仅代表用户个人观点,与本网站立场无关,希望各位烧友理性发言,不发表违法国家法律禁止的话题。

您需要登录后才可以回帖 登录 | 立即注册

本版积分规则

开通会员 每日签到 返回顶部 返回列表