游客您好
第三方账号登陆
  • 点击联系客服

    在线时间:8:00-16:00

    电子邮件

    lanniao@4kpro.cn
  • 扫描二维码

    访问小程序

  • 扫描二维码

    访问手机版

推荐阅读
Hao8k资源组
未知星球 | 未知职业
  • 关注0
  • 粉丝1
  • 帖子57008
精选帖子
开启左侧

[剧情片] 银河守门员 Cosmoball.2020.RUSSIAN.1080p.BluRay.x264.DTS-NOGRP 8.98GB

[复制链接]
Hao8k资源组 发表于 2021-1-27 11:54:26 | 显示全部楼层 |阅读模式 打印 上一主题 下一主题

马上注册 Hao8k.cn ,获得更好的体验,让你轻松玩转Hao8k

您需要 登录 才可以下载或查看,没有帐号?立即注册

x
20190801120031.jpg

译  名 银河守门员 / Goalkeeper of the Galaxy
片  名 Вратарь Галактики
年  代 2020
产  地 俄罗斯
类  别 剧情 / 科幻 / 奇幻 / 运动
语  言 俄语
上映日期 2020-08-27(俄罗斯)
IMDb评分  4.5/10 from 66 users
豆瓣评分 0/10 from 0 users
导  演 贾尼克·法伊济耶夫 Dzhanik Faiziyev
主  演
维多利亚·阿加拉科娃 Viktoriya Agalakova
斯维特兰娜·伊万诺娃 Svetlana Ivanova
叶甫盖尼·米罗诺夫 Yevgeny Mironov
米哈伊尔·叶夫列莫夫 Mikhail Efremov
迪米特里·纳佐罗夫 Dmitriy Nazarov
伊连娜·雅科夫列娃 Elena Yakovleva
玛尔塔·蒂莫菲娃 Marta Timofeeva

简  介
  2071 год. Галактические войны разрушили Луну и изменили климат на Земле. Москва – в тропических лесах, а Нью-Йорк покрылся льдом. Над Москвой возвышается огромный инопланетный корабль – это стадион, на котором проходят зрелищные межгалактические соревнования по космоболу — игре, объединившей в себе спорт и гладиаторские бои. За матчами следит вся галактика. Играть в космобол могут только атлеты. Именно так называют тех, кто наделен необыкновенными способностями и может ими управлять. Космобол обожают все, кроме Антона, самого обычного парня, который всего лишь мечтает найти работу, чтобы помочь семье. Но однажды у него обнаруживают сверхспособности, и принимают в сборную. Теперь он игрок в космобол. Антон ещё не подозревает о том, какая роль уготована ему судьбой в этом матче, и что финальная игра станет сражением за Землю.

影片参数
  1. Video
  2. ID                                       : 1
  3. Format                                   : AVC
  4. Format/Info                              : Advanced Video Codec
  5. Format profile                           : High@L4.1
  6. Format settings                          : CABAC / 5 Ref Frames
  7. Format settings, CABAC                   : Yes
  8. Format settings, Reference frames        : 5 frames
  9. Codec ID                                 : V_MPEG4/ISO/AVC
  10. Duration                                 : 1 h 53 min
  11. Bit rate                                 : 9 349 kb/s
  12. Width                                    : 1 920 pixels
  13. Height                                   : 800 pixels
  14. Display aspect ratio                     : 2.40:1
  15. Frame rate mode                          : Constant
  16. Frame rate                               : 25.000 FPS
  17. Color space                              : YUV
  18. Chroma subsampling                       : 4:2:0
  19. Bit depth                                : 8 bits
  20. Scan type                                : Progressive
  21. Bits/(Pixel*Frame)                       : 0.243
  22. Stream size                              : 7.42 GiB (83%)
  23. Writing liary                          : x264 core 152 r2851 ba24899
  24. Encoding settings                        : cabac=1 / ref=5 / deblock=1:-3:-3 / analyse=0x3:0x113 / me=umh / subme=10 / psy=1 / psy_rd=1.00:0.00 / mixed_ref=1 / me_range=24 / chroma_me=1 / trellis=2 / 8x8dct=1 / cqm=0 / deadzone=21,11 / fast_pskip=1 / chroma_qp_offset=-2 / threads=24 / lookahead_threads=4 / sliced_threads=0 / nr=0 / decimate=1 / interlaced=0 / NDU3NzU= / bluray_compat=0 / constrained_intra=0 / bframes=8 / b_pyramid=2 / b_adapt=2 / b_bias=0 / direct=3 / weightb=1 / open_gop=0 / weightp=2 / keyint=240 / keyint_min=24 / scenecut=40 / intra_refresh=0 / rc_lookahead=60 / rc=2pass / mbtree=1 / bitrate=9349 / ratetol=1.0 / qcomp=0.60 / qpmin=0 / qpmax=69 / qpstep=4 / cplxblur=20.0 / qblur=0.5 / vbv_maxrate=62500 / vbv_bufsize=78125 / nal_hrd=none / filler=0 / NDU3NzU=feCb3SYgnbojFoo / ip_ratio=1.40 / aq=1:1.00
  25. Default                                  : Yes
  26. Forced                                   : No

  27. Audio #1
  28. ID                                       : 2
  29. Format                                   : DTS
  30. Format/Info                              : Digital Theater Systems
  31. Codec ID                                 : A_DTS
  32. Duration                                 : 1 h 53 min
  33. Bit rate mode                            : Constant
  34. Bit rate                                 : 1 509 kb/s
  35. Channel(s)                               : 6 channels
  36. Channel layout                           : C L R Ls Rs LFE
  37. Sampling rate                            : 48.0 kHz
  38. Frame rate                               : 93.750 FPS (512 SPF)
  39. Bit depth                                : 24 bits
  40. Compression mode                         : Lossy
  41. Stream size                              : 1.20 GiB (13%)
  42. Language                                 : Russian
  43. Default                                  : Yes
  44. Forced                                   : No

  45. Audio #2
  46. ID                                       : 3
  47. Format                                   : AC-3
  48. Format/Info                              : Audio Coding 3
  49. Commercial name                          : Dolby Digital
  50. Codec ID                                 : A_AC3
  51. Duration                                 : 1 h 53 min
  52. Bit rate mode                            : Constant
  53. Bit rate                                 : 448 kb/s
  54. Channel(s)                               : 6 channels
  55. Channel layout                           : L R C LFE Ls Rs
  56. Sampling rate                            : 48.0 kHz
  57. Frame rate                               : 31.250 FPS (1536 SPF)
  58. Compression mode                         : Lossy
  59. Stream size                              : 364 MiB (4%)
  60. Language                                 : English
  61. Service kind                             : Complete Main
  62. Default                                  : No
  63. Forced                                   : No

复制代码

hao8k提示您,点击下方下载按钮立刻开始下载
银河守门员 Cosmoball.2020.RUSSIAN.1080p.BluRay.x264.DTS-NOGRP 8.98GB
Cosmoball.2020.RUSSIAN.1080p.BluRay.x264.DTS-NOGRP.torrent (45.42 KB, 下载次数: 1)

遇到问题怎么办?
Hao8k小助手精心为您解答:

蓝光资源该怎么播放?Hao8k精选播放软件汇总
用什么下载Hao8k资源呢?精选下载软件合辑
去看看新手学院,Hao8k小助手带你玩转高清
回复

使用道具 举报

精彩评论3

TLB 发表于 2021-3-12 08:39:07 | 显示全部楼层
回复下载看电影。
回复

使用道具 举报

iwantmore 发表于 2021-9-6 18:44:05 | 显示全部楼层
这个还蛮好看的。
回复

使用道具 举报

TLB 发表于 2021-11-24 09:26:41 | 显示全部楼层
谢谢楼主分享
回复

使用道具 举报

您需要登录后才可以回帖 登录 | 立即注册

本版积分规则

蓝光电影网内容部分由用户自主分享和转载自互联网,转载目的在于传递更多信息,并不代表本网赞同其观点和对其真实性负责。 如有侵权、违反国家法律政策行为,请联系我们,我们会第一时间及时清除和处理!
移动端
  • 扫码访问小程序
  • 扫码访问手机端

Powered by 蓝光电影网 X3.4© 2021-2022 Hao8k.cn |网站地图