开启左侧

[其他纪录片] 真实影像:[开国大典][彩色修复版/国语中字][聆听毛主席当年使用九头鸟扩音机/向全国人民讲话真实声音]

Hao8k资源组 发表于 2019-11-19 20:13:28 | 显示全部楼层 |阅读模式

马上注册 Hao8k.cn ,获得更好的体验,让你轻松玩转Hao8k

您需要 登录 才可以下载或查看,没有帐号?立即注册

x

※※※※※※※ 影片标题 ※※※※※※※

真实影像:[开国大典][彩色修复版/国语中字][聆听毛主席当年使用九头鸟扩音机/向全国人民讲话真实声音]

[Founding ceremony]. Color restoration version.1949.AVC.1080p.x264.AC-3-mkv

※※※※※※※ 影片信息 ※※※※※※※

中文名称:中华人民共和国中央人民政府成立典礼

中文简称: 开国大典

年        代: 1949年

开始日期:1949年10月1日15:00

所      属:  历史事件

地      点:北京天安门

意      义:中华人民共和国成立的标志

主要人物 :毛泽东、朱德、周恩来等

※※※※※※※ 影片剧情 ※※※※※※※

剧情介绍:

                  今天,中央档案馆精选馆藏珍贵档案文献,推出“从‘五一口号’到开国大典”大型档案文献专辑重磅发布。

团仔注意到其中12分钟珍藏版开国大典彩色影像,是首次公开,浙江共青团进行二度修复。

1949年10月1日,庆祝中华人民共和国中央人民政府成立典礼在天安门广场隆重举行。三十万军民参加这一旷世盛典。

                  以俄罗斯联邦档案部门提供的开国大典彩色影片为基础,剪辑制作的开国大典影像档案,是目前公开的关于开国大典的时间最长、内容最完整的视频,真实还原了这一伟大的历史时刻。

70年过去了,此刻再回看依然热血澎湃,值得珍藏!

※※※※※※※ 影片参数 ※※※※※※※

影片参数
  1. Format : Matroska

  2. Format version : Version 4

  3. File size : 1 014 MiB

  4. Duration : 12 min 12 s

  5. Overall bit rate : 11.6 Mb/s

  6. Encoded date : UTC 2019-10-23 13:20:44

  7. Writing application : mkvmerge v35.0.0 ("All The Love In The World") 64-bit

  8. Writing library : libebml v1.3.9 + libmatroska v1.5.2

  9. Video

  10. ID : 1

  11. Format : AVC

  12. Format/Info : Advanced Video Codec

  13. Format profile : High@L4

  14. Format settings : CABAC / 4 Ref Frames

  15. Format settings, CABAC : Yes

  16. Format settings, Reference fra : 4 frames

  17. Codec ID : V_MPEG4/ISO/AVC

  18. Duration : 12 min 12 s

  19. Bit rate : 4 854 kb/s

  20. Width : 1 920 pixels

  21. Height : 1 080 pixels

  22. Display aspect ratio : 16:9

  23. Frame rate mode : Constant

  24. Frame rate : 24.000 FPS

  25. Color space : YUV

  26. Chroma subsampling : 4:2:0

  27. Bit depth : 8 bits

  28. Scan type : Progressive

  29. Bits/(Pixel*Frame) : 0.098

  30. Stream size : 424 MiB (42%)

  31. Writing library : x264 core 148

  32. Encoding settings : cabac=1 / ref=3 / deblock=1:0:0 / analyse=0x3:0x113 / me=hex / subme=7 / psy=1 / psy_rd=1.00:0.00 / mixed_ref=1 / me_range=16 / chroma_me=1 / trellis=1 / 8x8dct=1 / cqm=0 / deadzone=21,11 / fast_pskip=1 / chroma_qp_offset=-2 / threads=6 / lookahead_threads=1 / sliced_threads=0 / nr=0 / decimate=1 / interlaced=0 / bluray_compat=0 / constrained_intra=0 / bframes=3 / b_pyramid=2 / b_adapt=1 / b_bias=0 / direct=1 / weightb=1 / open_gop=0 / weightp=2 / keyint=250 / keyint_min=24 / scenecut=40 / intra_refresh=0 / rc_lookahead=40 / rc=crf / mbtree=1 / crf=18.0 / qcomp=0.60 / qpmin=0 / qpmax=69 / qpstep=4 / ip_ratio=1.40 / aq=1:1.00

  33. Default : Yes

  34. Forced : No

  35. Audio #1

  36. ID : 2

  37. Format : PCM

  38. Format settings : Little / Signed

  39. Codec ID : A_PCM/INT/LIT

  40. Duration : 12 min 12 s

  41. Bit rate mode : Constant

  42. Bit rate : 4 608 kb/s

  43. Channel(s) : 6 channels

  44. Sampling rate : 48.0 kHz

  45. Frame rate : 32.001 FPS (1500 SPF)

  46. Bit depth : 16 bits

  47. Stream size : 402 MiB (40%)

  48. Language : Chinese

  49. Default : Yes

  50. Forced : No

  51. Audio #2

  52. ID : 3

  53. Format : DTS

  54. Format/Info : Digital Theater Systems

  55. Codec ID : A_DTS

  56. Duration : 12 min 12 s

  57. Bit rate mode : Constant

  58. Bit rate : 1 509 kb/s

  59. Channel(s) : 6 channels

  60. Channel layout : C L R Ls Rs LFE

  61. Sampling rate : 48.0 kHz

  62. Frame rate : 93.750 FPS (512 SPF)

  63. Bit depth : 16 bits

  64. Compression mode : Lossy

  65. Stream size : 132 MiB (13%)

  66. Language : Chinese

  67. Default : No

  68. Forced : No

  69. Audio #3

  70. ID : 4

  71. Format : AC-3

  72. Format/Info : Audio Coding 3

  73. Commercial name : Dolby Digital

  74. Codec ID : A_AC3

  75. Duration : 12 min 12 s

  76. Bit rate mode : Constant

  77. Bit rate : 640 kb/s

  78. Channel(s) : 2 channels

  79. Channel layout : L R

  80. Sampling rate : 48.0 kHz

  81. Frame rate : 31.250 FPS (1536 SPF)

  82. Bit depth : 16 bits

  83. Compression mode : Lossy

  84. Stream size : 55.9 MiB (6%)

  85. Language : Chinese

  86. Service kind : Complete Main

  87. Default : No

  88. Forced : No
复制代码


※※※※※※※ 影片截图 ※※※※※※※



---- ++++ ---- ++++ ---- ++++ ----- ++++ ----- ++++ -----

hao8k提示您,点击下方下载按钮立刻开始下载
真实影像:[开国大典][彩色修复版/国语中字][聆听毛主席当年使用九头鸟扩音机/向全国人民讲话真实声音]

真实影像:[开国大典].彩色修复版.torrent ( 20.21 KB, 售价: 8 K币 )



遇到问题怎么办?
Hao8k小助手精心为您解答:

蓝光资源该怎么播放?Hao8k精选播放软件汇总
用什么下载Hao8k资源呢?精选下载软件合辑
去看看新手学院,Hao8k小助手带你玩转高清
回复

使用道具 举报

全部回复13 显示全部楼层
gdlmxia 发表于 2020-1-6 08:36:53 | 显示全部楼层
廣東龍門馬到成功!謝謝樓主的無私發佈分享!
回复

使用道具 举报

TLB 发表于 2020-12-28 12:18:08 | 显示全部楼层
谢谢楼主分享
回复

使用道具 举报

beart 发表于 2021-1-14 22:55:32 | 显示全部楼层
非常感谢楼主分享开国大典高清影像文件,可是我币不够下载不了。
回复

使用道具 举报

gdlmxia 发表于 2021-1-21 11:48:53 | 显示全部楼层
太好啦&萬分感謝版主的無私發佈分享%
回复

使用道具 举报

Ahwei 发表于 2021-11-8 14:47:07 | 显示全部楼层
非常好!谢谢分享!
回复

使用道具 举报

565142 发表于 2022-6-22 08:26:09 | 显示全部楼层

) Q1 ~  k) D9 G7 q就爱看演唱会
回复

使用道具 举报

电影不死 发表于 2022-10-25 22:34:08 | 显示全部楼层
谢谢楼主分享
回复

使用道具 举报

杨小云 发表于 2022-11-16 00:07:45 | 显示全部楼层
不错不错,感谢分享。。。
回复

使用道具 举报

shenggy 发表于 2022-11-18 21:47:58 | 显示全部楼层
谢谢楼主分享!
回复

使用道具 举报

声明:您在社区发表的所有信息仅代表用户个人观点,与本网站立场无关,希望各位烧友理性发言,不发表违法国家法律禁止的话题。

您需要登录后才可以回帖 登录 | 立即注册

本版积分规则

开通会员 每日签到 返回顶部 返回列表